Validating mflv 2110

07-Jul-2018 18:56 by 10 Comments

Validating mflv 2110 - Online do sex chat totally free

After thorough deliberation, we're announcing that we're about to drop the ffserver program from the project starting with the next release.ffserver has been a problematic program to maintain due to its use of internal APIs, which complicated the recent cleanups to the libavformat library, and block further cleanups and improvements which are desired by API users and will be easier to maintain.

validating mflv 2110-82validating mflv 2110-76validating mflv 2110-6

These filters allow motion interpolating frame rate conversion to be applied to a video, for example, to create a slow motion effect or change the frame rate while smoothly interpolating the video along the motion vectors.

] for help frame= 5 fps=0.0 q=-1.0 Lsize= 1170k B time=.50 bitrate=6390.8kbits/s video:1169k B audio:0k B subtitle:0k B other streams:0k B global headers:0k B muxing overhead: 0.073660% [libx264 @ 0xd910c0] frame I:1 Avg QP:25.54 size:289842 [libx264 @ 0xd910c0] frame P:4 Avg QP:20.54 size:226716 [libx264 @ 0xd910c0] mb I I16..4: 0.0% 0.2% 99.8% [libx264 @ 0xd910c0] mb P I16..4: 16.8% 23.8% 59.4% P16..4: 0.0% 0.0% 0.0% 0.0% 0.0% skip: 0.0% [libx264 @ 0xd910c0] 8x8 transform intra:19.1% inter:0.0% [libx264 @ 0xd910c0] coded y,uv DC,uv AC intra: 84.5% 85.6% 79.2% inter: 50.0% 100.0% 100.0% [libx264 @ 0xd910c0] i16 v,h,dc,p: 95% 1% 4% 0% [libx264 @ 0xd910c0] i8 v,h,dc,ddl,ddr,vr,hd,vl,hu: 6% 8% 38% 7% 7% 6% 11% 9% 9% [libx264 @ 0xd910c0] i4 v,h,dc,ddl,ddr,vr,hd,vl,hu: 8% 9% 23% 9% 9% 8% 14% 9% 11% [libx264 @ 0xd910c0] i8c dc,h,v,p: 72% 10% 5% 13% [libx264 @ 0xd910c0] Weighted P-Frames: Y:50.0% UV:50.0% [libx264 @ 0xd910c0] ref P L0: 50.0% 50.0% [libx264 @ 0xd910c0] kb/s:3829.46 Unfortunately not.

3.100 [mjpeg @ 0xd8e620] Changeing bps to 8 Input #0, image2, from 'md.jpeg': Duration: .20, start: 0.000000, bitrate: N/A Stream #0:0: Video: mjpeg, yuvj420p(pc, bt470bg/unknown/unknown), 800x600 [SAR 1:1 DAR 4:3], 25 fps, 25 tbr, 25 tbn, 25 tbc [libx264 @ 0xd910c0] using SAR=1/1 [libx264 @ 0xd910c0] using cpu capabilities: MMX2 SSE2Fast SSSE3 SSE4.2 AVX [libx264 @ 0xd910c0] profile High, level 3.1 [libx264 @ 0xd910c0] 264 - core 148 r2643 5c65704 - H.264/MPEG-4 AVC codec - Copyleft 2003-2015 - options: cabac=1 ref=3 deblock=1:0:0 analyse=0x3:0x113 me=hex subme=7 psy=1 psy_rd=1.00:0.00 mixed_ref=1 me_range=16 chroma_me=1 trellis=1 8x8dct=1 cqm=0 deadzone=21,11 fast_pskip=1 chroma_qp_offset=-2 threads=6 lookahead_threads=1 sliced_threads=0 nr=0 decimate=1 interlaced=0 bluray_compat=0 constrained_intra=0 bframes=3 b_pyramid=2 b_adapt=1 b_bias=0 direct=1 weightb=1 open_gop=0 weightp=2 keyint=250 keyint_min=2 scenecut=40 intra_refresh=0 rc_lookahead=40 rc=crf mbtree=1 crf=23.0 qcomp=0.60 qpmin=0 qpmax=69 qpstep=4 ip_ratio=1.40 aq=1:1.00 Output #0, mp4, to 'myvideo.mp4': Metadata: encoder : Lavf Stream #0:0: Video: h264 (libx264) ([33][0][0][0] / 0x0021), yuvj420p(pc), 800x600 [SAR 1:1 DAR 4:3], q=-1--1, 2 fps, 16384 tbn, 2 tbc Metadata: encoder : Lavc libx264 Stream mapping: Stream #0:0 - h264 (libx264)) Press [q] to stop, [?

All the resulting videos cause the same error in Prezi, so I think I'll have to reach out to Prezi support, or just forget about using Prezi altogether (it's online presentation software).

I've also tried using other software to create a video from the images, like Matlab and some free online tools.

I'd like to make a video of a sequence of these five images and upload it to Prezi to use in a presentation. I am generating a video using the following command: ...which isn't particularly informative.

If I upload a sample MP4 from the web to Prezi, it works fine. Both the ffplay and opengl output devices have been updated to support SDL2.FFmpeg 3.1.2, a new point release from the 3.1 release branch, is now available! We recommend users, distributors, and system integrators, to upgrade unless they use current git master.His work has improved the code coverage of our self tests considerably.Umair Khan updated and integrated the ALS encoder to fit in the current FFmpeg codebase.He also implemented a missing feature for the ALS decoder that enables floating-point sample decoding.